• -Kötelező képet, borítót kirakni a tartalomról, ellenkező esetben törölni fogjuk.
    -Ha megszűnik a képet tartalmazó tárhely ahonnan be lett linkelve, pótlási felszólítást küldünk.
    -A linkeket code tag # közé kell rakni és sima text formában, nem rákattintható linkként.
    -Tilos olyan tárhelyről linkelés ahol a letöltéshez regisztráció szükséges!
    - A filmeket és a videókat a megfelelő helyre és mappába töltsétek fel, (Pl. a Magyart vagy magyar szinkronost, a Magyar XXX-be, stb).
Ha data.hu-s a feltöltés, válaszd ki ezt hogy ki legyen emelve!
LV
1
 

bubus66

Moderátor
Utoljára online
2009.03.09.
919
384
83
Díjak
2
androware.hu
Taboo Family Vacation 1 An XXX Taboo Parody! XXX.DVDRip

A tartalom megtekintéséhez szükséges: Bejelentkezés vagy Regisztráció to view URLs content!
A tartalom megtekintéséhez szükséges: Bejelentkezés vagy Regisztráció to view URLs content!

Featuring:
A tartalom megtekintéséhez szükséges: Bejelentkezés vagy Regisztráció to view URLs content!


General
Complete name : Taboo Family Vacation 1 An XXX Taboo Parody!.mp4
Format : MPEG-4
Format profile : Base Media
Codec ID : isom (isom/iso2/avc1/mp41)
File size : 1.12 GiB
Duration : 1 h 46 min
Overall bit rate : 1 504 kb/s
Writing application : Lavf57.66.104

Video
ID : 1
Format : AVC
Format/Info : Advanced Video Codec
Format profile : Main@L3.2
Format settings : CABAC / 4 Ref Frames
Format settings, CABAC : Yes
Format settings, Reference : 4 frames
Format settings, GOP : M=3, N=30
Codec ID : avc1
Codec ID/Info : Advanced Video Coding
Duration : 1 h 46 min
Bit rate : 1 400 kb/s
Width : 852 pixels
Height : 480 pixels
Display aspect ratio : 16:9
Original display aspect rat : 16:9
Frame rate mode : Constant
Frame rate : 30.000 FPS
Color space : YUV
Chroma subsampling : 4:2:0
Bit depth : 8 bits
Scan type : Progressive
Bits/(Pixel*Frame) : 0.114
Stream size : 1.04 GiB (93%)
Writing library : x264 core 142 r2 dd79a61
Encoding settings : cabac=1 / ref=2 / deblock=1:0:0 / analyse=0x1:0x111 / me=hex / subme=7 / psy=1 / psy_rd=1.00:0.00 / mixed_ref=1 / me_range=16 / chroma_me=1 / trellis=1 / 8x8dct=0 / cqm=0 / deadzone=21,11 / fast_pskip=1 / chroma_qp_offset=-2 / threads=16 / lookahead_threads=2 / sliced_threads=0 / nr=0 / decimate=1 / interlaced=0 / bluray_compat=0 / constrained_intra=0 / bframes=2 / b_pyramid=2 / b_adapt=1 / b_bias=0 / direct=1 / weightb=1 / open_gop=0 / weightp=2 / keyint=30 / keyint_min=16 / scenecut=0 / intra_refresh=0 / rc_lookahead=32 / rc=abr / mbtree=1 / bitrate=1400 / ratetol=1.0 / qcomp=0.60 / qpmin=0 / qpmax=69 / qpstep=4 / vbv_maxrate=1700 / vbv_bufsize=1835 / nal_hrd=none / filler=0 / ip_ratio=1.40 / aq=1:1.00
Codec configuration box : avcC

Audio
ID : 2
Format : AAC LC
Format/Info : Advanced Audio Codec Low Complexity
Codec ID : mp4a-40-2
Duration : 1 h 46 min
Bit rate mode : Constant
Bit rate : 96.0 kb/s
Channel(s) : 2 channels
Channel layout : L R
Sampling rate : 44.1 kHz
Frame rate : 43.066 FPS (1024 SPF)
Compression mode : Lossy
Stream size : 72.9 MiB (6%)
Default : Yes
Alternate group : 1


datafree.png

Code:




Linkeket csak regisztrált tagok láthatják!  Bejelentkezés :::  Regisztráció





datapremium.png
Code:




Linkeket csak regisztrált tagok láthatják!  Bejelentkezés :::  Regisztráció




 
Utoljára szerkesztve:
  • Köszönöm!
Reakciók: doresz2
LV
1
 

bubus66

Moderátor
Utoljára online
2009.03.09.
919
384
83
Díjak
2
androware.hu
Taboo Family Vacation 2 A XXX Taboo Parody XXX.DVDRip

A tartalom megtekintéséhez szükséges: Bejelentkezés vagy Regisztráció to view URLs content!
A tartalom megtekintéséhez szükséges: Bejelentkezés vagy Regisztráció to view URLs content!

Featuring:
A tartalom megtekintéséhez szükséges: Bejelentkezés vagy Regisztráció to view URLs content!

General
Complete name : Taboo Family Vacation 2 A XXX Taboo Parody!.mp4
Format : MPEG-4
Format profile : Base Media
Codec ID : isom (isom/iso2/avc1/mp41)
File size : 1.28 GiB
Duration : 2 h 1 min
Overall bit rate : 1 508 kb/s
Writing application : Lavf57.66.104

Video
ID : 1
Format : AVC
Format/Info : Advanced Video Codec
Format profile : Main@L3.2
Format settings : CABAC / 4 Ref Frames
Format settings, CABAC : Yes
Format settings, Reference : 4 frames
Format settings, GOP : M=3, N=30
Codec ID : avc1
Codec ID/Info : Advanced Video Coding
Duration : 2 h 1 min
Bit rate : 1 400 kb/s
Width : 852 pixels
Height : 480 pixels
Display aspect ratio : 16:9
Frame rate mode : Constant
Frame rate : 30.000 FPS
Color space : YUV
Chroma subsampling : 4:2:0
Bit depth : 8 bits
Scan type : Progressive
Bits/(Pixel*Frame) : 0.114
Stream size : 1.19 GiB (93%)
Writing library : x264 core 142 r2 dd79a61
Encoding settings : cabac=1 / ref=2 / deblock=1:0:0 / analyse=0x1:0x111 / me=hex / subme=7 / psy=1 / psy_rd=1.00:0.00 / mixed_ref=1 / me_range=16 / chroma_me=1 / trellis=1 / 8x8dct=0 / cqm=0 / deadzone=21,11 / fast_pskip=1 / chroma_qp_offset=-2 / threads=16 / lookahead_threads=2 / sliced_threads=0 / nr=0 / decimate=1 / interlaced=0 / bluray_compat=0 / constrained_intra=0 / bframes=2 / b_pyramid=2 / b_adapt=1 / b_bias=0 / direct=1 / weightb=1 / open_gop=0 / weightp=2 / keyint=30 / keyint_min=16 / scenecut=0 / intra_refresh=0 / rc_lookahead=32 / rc=abr / mbtree=1 / bitrate=1400 / ratetol=1.0 / qcomp=0.60 / qpmin=0 / qpmax=69 / qpstep=4 / vbv_maxrate=1700 / vbv_bufsize=1835 / nal_hrd=none / filler=0 / ip_ratio=1.40 / aq=1:1.00
Codec configuration box : avcC

Audio
ID : 2
Format : AAC LC
Format/Info : Advanced Audio Codec Low Complexity
Codec ID : mp4a-40-2
Duration : 2 h 1 min
Bit rate mode : Constant
Bit rate : 96.0 kb/s
Channel(s) : 2 channels
Channel layout : L R
Sampling rate : 44.1 kHz
Frame rate : 43.066 FPS (1024 SPF)
Compression mode : Lossy
Stream size : 83.1 MiB (6%)
Default : Yes
Alternate group : 1

datafree.png

Code:




Linkeket csak regisztrált tagok láthatják!  Bejelentkezés :::  Regisztráció





datapremium.png

Code:




Linkeket csak regisztrált tagok láthatják!  Bejelentkezés :::  Regisztráció




 
  • Köszönöm!
Reakciók: doresz2
Kedvezményes Data.hu prémium előfizetés itt! Tölts villámgyorsan, korlátok nélkül!